(Melodic Death | Symphonic Black Metal) [CD] Little Dead Bertha - Age Of Silence - 2018, FLAC (image+.cue), lossless 

Цитировать

Little Dead Bertha

Age Of Silence




• Жанр: Melodic Death Black Metal
• Носитель: CD
• Год издания: 2018
• Издатель (лейбл) Sound Age Productions
• Номер по каталогу: SAPCD381
• Страна исполнителя (группы): RF
• Аудиокодек: FLAC (*.flac)
• Тип рипа: image+.cue
• Продолжительность: 00:46:40
• Источник (Спасибо): RD ®
• Наличие сканов: да

01. Intro (00:01:04)
02. Heaven For Sinners (00:05:40)
03. Day Of Your Life (00:04:53)
04. Age Of Silence (00:04:41)
05. Restless (00:05:35)
06. Death, Life, Fall (00:05:14)
07. Storm (00:06:58)
08. Come In My Dreams (00:05:03)
09. No Time To Cry (00:03:12)
10. Devil's Diner (00:04:14)
-

• Содержание индексной карты

REM GENRE "Melodic Death Black Metal"REM DATE 2018REM DISCID 760AF00AREM COMMENT "ExactAudioCopy v1.1"PERFORMER "Little Dead Bertha"TITLE "Age Of Silence (SAPCD381)"FILE "Little Dead Bertha - Age Of Silence (SAPCD381).flac" WAVE  TRACK 01 AUDIO    TITLE "Intro"    PERFORMER "Little Dead Bertha"    INDEX 01 00:00:00  TRACK 02 AUDIO    TITLE "Heaven For Sinners"    PERFORMER "Little Dead Bertha"    INDEX 01 01:04:72  TRACK 03 AUDIO    TITLE "Day Of Your Life"    PERFORMER "Little Dead Bertha"    INDEX 01 06:45:37  TRACK 04 AUDIO    TITLE "Age Of Silence"    PERFORMER "Little Dead Bertha"    INDEX 01 11:38:74  TRACK 05 AUDIO    TITLE "Restless"    PERFORMER "Little Dead Bertha"    INDEX 01 16:20:52  TRACK 06 AUDIO    TITLE "Death, Life, Fall"    PERFORMER "Little Dead Bertha"    INDEX 01 21:56:15  TRACK 07 AUDIO    TITLE "Storm"    PERFORMER "Little Dead Bertha"    INDEX 01 27:11:06  TRACK 08 AUDIO    TITLE "Come In My Dreams"    PERFORMER "Little Dead Bertha"    INDEX 01 34:09:34  TRACK 09 AUDIO    TITLE "No Time To Cry"    PERFORMER "Little Dead Bertha"    INDEX 01 39:13:31  TRACK 10 AUDIO    TITLE "Devil's Diner"    PERFORMER "Little Dead Bertha"    INDEX 01 42:25:68
-

• Лог создания рипа

Exact Audio Copy V1.1 from 23. June 2015
EAC extraction logfile from 23. October 2018, 22:48
Little Dead Bertha / Age Of Silence (SAPCD381)
Used drive : TSSTcorpDVDWBD SH-B123L Adapter: 0 ID: 4
Read mode : SecureUtilize accurate stream : YesDefeat audio cache : YesMake use of C2 pointers : No
Read offset correction : 6Overread into Lead-In and Lead-Out : NoFill up missing offset samples with silence : YesDelete leading and trailing silent blocks : NoNull samples used in CRC calculations : YesUsed interface : Installed external ASPI interface
Used output format : User Defined EncoderSelected bitrate : 768 kBit/sQuality : HighAdd ID3 tag : NoCommand line compressor : C:\Program Files (x86)\Exact Audio Copy\FLAC\FLAC.EXEAdditional command line options : -6 -V -T "ARTIST=%artist%" -T "TITLE=%title%" -T "ALBUM=%albumtitle%" -T "DATE=%year%" -T "TRACKNUMBER=%tracknr%" -T "GENRE=%genre%" -T "COMMENT=%comment%" -T "BAND=%albuminterpret%" -T "ALBUMARTIST=%albuminterpret%" -T "COMPOSER=%composer%" %haslyrics%--tag-from-file=LYRICS="%lyricsfile%"%haslyrics% -T "DISCNUMBER=%cdnumber%" -T "TOTALDISCS=%totalcds%" -T "TOTALTRACKS=%numtracks%" %hascover%--picture="%coverfile%"%hascover% %source% -o %dest%
TOC of the extracted CD
Track | Start | Length | Start sector | End sector --------------------------------------------------------- 1 | 0:00.00 | 1:04.72 | 0 | 4871 2 | 1:04.72 | 5:40.40 | 4872 | 30411 3 | 6:45.37 | 4:53.37 | 30412 | 52423 4 | 11:38.74 | 4:41.53 | 52424 | 73551 5 | 16:20.52 | 5:35.38 | 73552 | 98714 6 | 21:56.15 | 5:14.66 | 98715 | 122330 7 | 27:11.06 | 6:58.28 | 122331 | 153708 8 | 34:09.34 | 5:03.72 | 153709 | 176505 9 | 39:13.31 | 3:12.37 | 176506 | 190942 10 | 42:25.68 | 4:14.63 | 190943 | 210055
Range status and errors
Selected range
Filename E:\MUSIC\Little Dead Bertha - Age Of Silence (SAPCD381).wav
Peak level 96.6 % Extraction speed 3.4 X Range quality 99.9 % Test CRC 329114A0 Copy CRC 329114A0 Copy OK
No errors occurred
AccurateRip summary
Track 1 not present in databaseTrack 2 not present in databaseTrack 3 not present in databaseTrack 4 not present in databaseTrack 5 not present in databaseTrack 6 not present in databaseTrack 7 not present in databaseTrack 8 not present in databaseTrack 9 not present in databaseTrack 10 not present in database
None of the tracks are present in the AccurateRip database
End of status report
==== Log checksum 4A6D96FCCFF767E7657A45E8964B2ECFFCE3B7E091EB7C9FE0426FD219934438 ====
--
Вы не можете начинать темы
Вы не можете отвечать на сообщения
Вы не можете редактировать свои сообщения
Вы не можете удалять свои сообщения
Вы не можете голосовать в опросах
Вы не можете прикреплять файлы к сообщениям
Вы можете скачивать файлы
!ВНИМАНИЕ!

Сайт не предоставляет электронные версии произведений, а занимается лишь коллекционированием и каталогизацией ссылок, присылаемых и публикуемых на форуме нашими читателями. Если вы являетесь правообладателем какого-либо представленного материала и не желаете, чтобы ссылка на него находилась в нашем каталоге, свяжитесь с нами, и мы незамедлительно удалим ее. Файлы для обмена на трекере предоставлены пользователями сайта, и администрация не несет ответственности за их содержание. Просьба не заливать файлы, защищенные авторскими правами, а также файлы нелегального содержания!

Искали программы, игры, дополнения, музыка mp3, аниме, аудио книги, журналы? Добро пожаловать на свободный торрент трекер Torrents, у нас можно скачать бесплатно, без смс и регистрации и прочих ограничений лучшие, отборные сборки программ, игр. Скачать торрентом не составит труда даже не опытному пользователю. Раздачи ежедневно обновляются, только лучшие и качественные раздачи, подробные описания и скриншоты. Огромная коллекция программ для работы со звуком, графикой, дизайном, а так же множество плагинов и инструментов к ним с подробной инструкцией и рекомендациями. Прошивки для навигаторов, карты. Разнообразные игры, для Windows, Linux. В коллекцие есть и старые игры любых жанров, Rpg, Action, Shooter, strategy Множество дополнений, модификаций, сценариев для популярных игр в жанре экш, рпг, гонки, стратегии, логические игры. Множество аддонов и сценариев для Microsoft Flight Simulator Большая коллекция книг, учебников. Если нет возможности купить печатное издание - смело скачивайте цифровую версию книги или, быть может, журнала. Не любите читать - можно загрузить бесплатно аудикнигу. Для веб дизайнеров и программистов так же найдется множество специализированного софта, таких как: редакторы с подсветкой, среды программирования, компоненты, системы управления базами данных, разнообразные скрипты и шаблоны. Не так давно у нас появился материал для автолюбителей и владельцев мото - оригинальные и неоригинальные каталоги запчастей, книги и журналы по ремонту и обслуживанию, видеоуроки, статьи по чип тюнингу, прошивкам. Процедура получения контента элементарная, достаточно просто скачать торрент файл и добавить его в загрузку в вашем торрент клиенте. Если у вас нет специального торрент клиента, вы можете его скачать у нас.

SHIPPED FROM OVERSEAS Louis will Bluetooth FM Transmitter, Bluetooth Receiver MP3 Player Wireless In-Car Stereo Radio Adapter Car Kit Hands Free Calling, Dual USB Ports Charge 5V/2.4A 1A (Black) -25% KSh 1,630 KSh 2,170 Generic Buy now | Lone Ranger, Naissance d'un hros en Streaming | Van Helsing Saison 3 Vostfr