Гончие / Сезоны: 1-5 / Серии: 1-60 из 76 (Вячеслав Лавров, Валерий Мызников, Леонид Пляскин) [2007-2013, детектив, криминал, DVDRip-AVC, SATRip-AVC] 

Цитировать
Гончие
Год выпуска: 2007-2013
Производство: Студия «Панорама», «Форвард-фильм»
Жанр: Детектив, криминал
Продолжительность: 60 x ~ 00:45:00
Субтитры: Нет
Режиссёр: Вячеслав Лавров, Валерий Мызников, Леонид Пляскин
В ролях: Максим Фомин, Алексей Титков, Роман Нечаев, Борис Хвошнянский, Виталий Кононов, Эмилия Спивак, Елена Хабарова, Владимир Абросимов, Павел Узденский, Владимир Сута, Юрис Лауциньш, Дмитрий Сутырин, Роман Якушов, Константин Шелестун, Владимир Ермаков (II), Светлана Немировская, Сергей Занин, Сергей Бледных, Алексей Кошевой, Инна Анциферова, Александр Сластин, Юрий Сазонов (II), Владимир Постников, Андрей Гульнев, Вячеслав Карпов, Михаил Трясоруков, Юрий Вьюшин, Мария Луговая, Виталий Салтыков, Андрей Феськов, Валерий Малюшин, Валерий Полетаев, Денис Синявский, Тихон Оськин, Геннадий Алимпиев, Галина Жданова (II), Александр Саюталин, Татьяна Рассказова, Марианна Мокшина, Хельга Филиппова, Маргарита Иванова, Лариса Климова, Елизавета Прилепская, Татьяна Рябоконь, Константин Гершов, Дмитрий Паламарчук, Вадим Бурлаков, Владимир Мойковский, Александр Иванов (VIII), Алексей Одинг, Владимир Маслаков, Анатолий Хропов, Людмила Ширяева, Сергей Гамов, Александр Ронис, Анатолий Шведерский, Лариса Луппиан, Виктор Бабич, Павел Майков
Описание:
1-й сезонВ отделение ГУИН по розыску сбежавших преступников приходит новый сотрудник Максим. Он удивлен малочисленностью отдела и слишком спокойным ритмом жизни сотрудников. Максим разочарован обстановкой, но только до того как поступает сообщение, что с этапа сбежал осужденный к двадцати годам заключения убийца… От инертности и отвлеченности сослуживцев Макса не остается и следа. Гончие бросаются на дичь. Ловить придется и беглянок. Последний побег из женской колонии произошел более двадцати лет назад и группа "гончьих" сталкивается с трудностями отсутствия опыта в поимке женщин-преступниц. И не вся дичь на охоте является только дичью…
2-й сезонОтдел Великанова по-прежнему продолжает ответственное и опасное дело - поиск сбежавших из мест заключения преступников, которых год от года не становится меньше. Так, частенько головной боли оперативникам добавляет неутомимый и заслуженный зек Карфидов, который недавно отправился в свой юбилейный, десятый по счету побег. Однако не только старый безобидный рецидивист совершает побеги в нашем городе: из мест заключения бегут люди, еще не научившиеся ценить ни свою, ни чужую жизнь, люди жадные до поживы и утех; воздух свободы пьянит их, дает ощущение вседозволенности. Эти беглые уголовники крайне опасны, и именно от них в первую очередь призваны обезопасить беззащитных обывателей сотрудники опергруппы Горыныча.
3-й сезонВ команде Горыныча происходят серьезные изменения. Еще совсем недавно в его отделе появилась молодая и амбициозная сотрудница - оперативник Рита Звонарева, и с первых дней дала понять чисто мужскому коллективу, что к ней самой и к ее работе нужно относиться очень серьезно, а теперь вслед за ней на старое место вернулась Мадлен, которой пришлось уйти из отдела несколько лет назад в связи с серьезным конфликтом внутри команды. Но в течение всего этого времени она была рядом и на деле доказала свою незаменимость. Сотрудники ее фирмы "Аркан" теперь остались без руководителя, но Битов не собирается сидеть, сложа руки. Он энергично берется за работу и сразу же с головой уходит в поиски очередной беглянки: старый клиент Мадлен Лукашов просит найти пропавшую дочь одного своего друга. Тем временем, в колонии для особо опасных преступников на Белоозерье случается чрезвычайное происшествие. Шторм, нередкий в этих суровых северных водах, почти затапливает камеры, в которых содержатся преступники, в результате чего, руководство принимает решение открыть двери нескольких из них и выпустить заключенных во двор. Содержащийся в одной из камер Кутовой вместе со своим соседом Погореловым решают воспользоваться ситуацией: такой шанс выпадает раз в жизни, и закоренелые убийцы оказываются на свободе...
4-й сезонВ новом, четвертом сезоне команде «гончих» – Градову, Аваляну, Симбирцеву, Звонаревой и Мадлен предстоит противопоставить хитрости и изощренной жестокости опасных преступников, вырвавшихся на свободу, только свой профессионализм и умение оставаться на высоте даже тогда, когда под ударом оказываются их близкие. Максиму Градову предстоит пережить настоящую драму: его невесту Марию Рижскую, работающую следователем прокуратуры, обвинят в пособничестве сбежавшему преступнику, отстранят от дел и возьмут под арест... Но это еще не все испытания, которые выпадут на долю команды «гончих». Им предстоит найти сбежавших из колонии для несовершеннолетних троих малолетних преступников. Их поимка особенно важна для Великанова: впервые он с такой ясностью осознает, что грань между преступником и его преследователем может быть почти неразличима. Ведь понять и предсказать мотивы и поведение несовершеннолетних преступников непросто.
5-й сезонРозыскной отдел УФСИН ждут большие перемены. Сплочённая команда "гончих" потеряла своего вожака – после гибели случайного свидетеля во время задержания очередного сбежавшего преступника Горыныч, взявший ответственность за случившееся на себя, вынужден уйти на пенсию. Вместо него на должность руководителя отдела назначают никому не известного москвича, в прошлом полковника ФСБ Владимира Резникова. Теперь оперативникам придётся поневоле привыкать к другим порядкам, а новому начальнику "гончих" предстоит изнутри узнать сложный и полный опасности мир, в котором свобода всегда дороже жизни…
Доп. информация
Так как второй сезон вышел на DVD в отвратительном качестве, в раздаче выложен SATRip данного сезона.
Из-за отсутствия исходников на первые 16 серий пятого сезона, в раздаче выложены только последние 8. Остальные серии выложены в AVI-формате отдельной раздачей.
Серии с Маховиковым в раздачу включать не стал, так как лично для меня это уже не Гончие, а какая-то жалкая подделка под них.
Реклама: Нет
Все раздачи сериала: Гончие
Сэмпл: http://multi-up.com/1161271
Качество: DVDRip-AVC, SATRip-AVC
Формат: MKV
Видео кодек: H.264
Аудио кодек: AC3, AAC
Видео: MPEG-4 (AVC), 716x428@760x428, ~1800 kbps, ~0.23 bit/pixel (Гончие-1)
Видео: MPEG-4 (AVC), 720x400, ~1800 kbps, ~0.25 bit/pixel (Гончие-2)
Видео: MPEG-4 (AVC), 716x432@766x432, ~1800 kbps, ~0.23 bit/pixel (Гончие-3,4)
Видео: MPEG-4 (AVC), 720x576@1024x576, ~1800 kbps, ~0.17 bit/pixel (Гончие-5)
Аудио: AC3, 48.0 kHz, 2 ch, 192 Kbps (Гончие-1,2,4)
Аудио: AC3, 48.0 kHz, 6 ch, 384 Kbps (Гончие-3)
Аудио: AAC, 48.0 kHz, 2 ch, 128 Kbps (Гончие-5)

MI

Гончие-1

General
Unique ID : 227824871933118858970380611448718401384 (0xAB65796B47C4570C872340DE79769F68)
Complete name : \Гончие\Гончие-1\1. Гонка за лидером (1 сер.).mkv
Format : Matroska
Format version : Version 2
File size : 700 MiB
Duration : 49 min 6 s
Overall bit rate : 1 993 kb/s
Encoded date : UTC 2017-05-30 20:32:30
Writing application : mkvmerge v7.8.0 ('River Man') 32bit built on Apr 3 2015 12:11:22
Writing library : libebml v1.3.1 + libmatroska v1.4.2
Video
ID : 1
Format : AVC
Format/Info : Advanced Video Codec
Format profile : High@L3
Format settings, CABAC : Yes
Format settings, ReFrames : 4 frames
Codec ID : V_MPEG4/ISO/AVC
Duration : 49 min 6 s
Bit rate : 1 800 kb/s
Width : 716 pixels
Height : 428 pixels
Display aspect ratio : 16:9
Frame rate mode : Constant
Frame rate : 25.000 FPS
Color space : YUV
Chroma subsampling : 4:2:0
Bit depth : 8 bits
Scan type : Progressive
Bits/(Pixel*Frame) : 0.235
Stream size : 619 MiB (88%)
Writing library : x264 core 146 r2538 121396c
Encoding settings : cabac=1 / ref=3 / deblock=1:0:0 / analyse=0x3:0x113 / me=umh / subme=7 / psy=1 / psy_rd=1.00:0.00 / mixed_ref=1 / me_range=16 / chroma_me=1 / trellis=1 / 8x8dct=1 / cqm=0 / deadzone=21,11 / fast_pskip=1 / chroma_qp_offset=-2 / threads=4 / lookahead_threads=1 / sliced_threads=0 / nr=0 / decimate=1 / interlaced=0 / bluray_compat=0 / stitchable=1 / constrained_intra=0 / bframes=3 / b_pyramid=2 / b_adapt=1 / b_bias=0 / direct=1 / weightb=1 / open_gop=0 / weightp=2 / keyint=250 / keyint_min=25 / scenecut=40 / intra_refresh=0 / rc_lookahead=40 / rc=2pass / mbtree=1 / bitrate=1800 / ratetol=1.0 / qcomp=0.60 / qpmin=0 / qpmax=69 / qpstep=4 / cplxblur=20.0 / qblur=0.5 / ip_ratio=1.40 / aq=1:1.00
Default : Yes
Forced : No
Audio
ID : 2
Format : AC-3
Format/Info : Audio Coding 3
Format settings, Endianness : Big
Codec ID : A_AC3
Duration : 49 min 6 s
Bit rate mode : Constant
Bit rate : 192 kb/s
Channel(s) : 2 channels
Channel positions : Front: L R
Sampling rate : 48.0 kHz
Frame rate : 31.250 FPS (1536 spf)
Bit depth : 16 bits
Compression mode : Lossy
Stream size : 67.4 MiB (10%)
Service kind : Complete Main
Default : Yes
Forced : No

Гончие-2

General
Unique ID : 187891421521855582347457134797409589518 (0x8D5A924DD703A0C19CF47F5B415D990E)
Complete name : \Гончие\Гончие-2\1. До первой крови (1 сер.).mkv
Format : Matroska
Format version : Version 4 / Version 2
File size : 638 MiB
Duration : 44 min 44 s
Overall bit rate : 1 994 kb/s
Encoded date : UTC 2016-11-28 10:14:24
Writing application : mkvmerge v8.3.0 ('Over the Horizon') 64bit
Writing library : libebml v1.3.1 + libmatroska v1.4.2
Video
ID : 1
Format : AVC
Format/Info : Advanced Video Codec
Format profile : High@L3
Format settings, CABAC : Yes
Format settings, ReFrames : 4 frames
Codec ID : V_MPEG4/ISO/AVC
Duration : 44 min 44 s
Bit rate : 1 800 kb/s
Width : 720 pixels
Height : 400 pixels
Display aspect ratio : 16:9
Frame rate mode : Constant
Frame rate : 25.000 FPS
Color space : YUV
Chroma subsampling : 4:2:0
Bit depth : 8 bits
Scan type : Progressive
Bits/(Pixel*Frame) : 0.250
Stream size : 576 MiB (90%)
Writing library : x264 core 146 r2538 121396c
Encoding settings : cabac=1 / ref=1 / deblock=1:0:0 / analyse=0x3:0x3 / me=dia / subme=1 / psy=1 / psy_rd=1.00:0.00 / mixed_ref=0 / me_range=16 / chroma_me=1 / trellis=0 / 8x8dct=1 / cqm=0 / deadzone=21,11 / fast_pskip=1 / chroma_qp_offset=0 / threads=4 / lookahead_threads=1 / sliced_threads=0 / nr=0 / decimate=1 / interlaced=0 / bluray_compat=0 / stitchable=1 / constrained_intra=0 / bframes=3 / b_pyramid=2 / b_adapt=1 / b_bias=0 / direct=3 / weightb=1 / open_gop=0 / weightp=1 / keyint=250 / keyint_min=25 / scenecut=40 / intra_refresh=0 / rc=2pass / mbtree=0 / bitrate=1800 / ratetol=1.0 / qcomp=0.60 / qpmin=0 / qpmax=69 / qpstep=4 / cplxblur=20.0 / qblur=0.5 / ip_ratio=1.40 / pb_ratio=1.30 / aq=1:1.00
Language : English
Default : Yes
Forced : No
Audio
ID : 2
Format : AC-3
Format/Info : Audio Coding 3
Format settings, Endianness : Big
Codec ID : A_AC3
Duration : 44 min 44 s
Bit rate mode : Constant
Bit rate : 192 kb/s
Channel(s) : 2 channels
Channel positions : Front: L R
Sampling rate : 48.0 kHz
Frame rate : 31.250 FPS (1536 spf)
Bit depth : 16 bits
Compression mode : Lossy
Stream size : 61.4 MiB (10%)
Service kind : Complete Main
Default : Yes
Forced : No

Гончие-3

General
Unique ID : 224980222859703064594980275248545002695 (0xA9419D6430DDDC5390B30FCE38A9F4C7)
Complete name : \Гончие\Гончие-3\1. Братство народов (1 сер.).mkv
Format : Matroska
Format version : Version 2
File size : 718 MiB
Duration : 45 min 55 s
Overall bit rate : 2 186 kb/s
Encoded date : UTC 2017-06-02 16:15:33
Writing application : mkvmerge v7.8.0 ('River Man') 32bit built on Apr 3 2015 12:11:22
Writing library : libebml v1.3.1 + libmatroska v1.4.2
Video
ID : 1
Format : AVC
Format/Info : Advanced Video Codec
Format profile : High@L3
Format settings, CABAC : Yes
Format settings, ReFrames : 4 frames
Codec ID : V_MPEG4/ISO/AVC
Duration : 45 min 55 s
Bit rate : 1 800 kb/s
Width : 716 pixels
Height : 432 pixels
Display aspect ratio : 16:9
Frame rate mode : Constant
Frame rate : 25.000 FPS
Color space : YUV
Chroma subsampling : 4:2:0
Bit depth : 8 bits
Scan type : Progressive
Bits/(Pixel*Frame) : 0.233
Stream size : 578 MiB (80%)
Writing library : x264 core 146 r2538 121396c
Encoding settings : cabac=1 / ref=3 / deblock=1:0:0 / analyse=0x3:0x113 / me=umh / subme=7 / psy=1 / psy_rd=1.00:0.00 / mixed_ref=1 / me_range=16 / chroma_me=1 / trellis=1 / 8x8dct=1 / cqm=0 / deadzone=21,11 / fast_pskip=1 / chroma_qp_offset=-2 / threads=4 / lookahead_threads=1 / sliced_threads=0 / nr=0 / decimate=1 / interlaced=0 / bluray_compat=0 / stitchable=1 / constrained_intra=0 / bframes=3 / b_pyramid=2 / b_adapt=1 / b_bias=0 / direct=1 / weightb=1 / open_gop=0 / weightp=2 / keyint=250 / keyint_min=25 / scenecut=40 / intra_refresh=0 / rc_lookahead=40 / rc=2pass / mbtree=1 / bitrate=1800 / ratetol=1.0 / qcomp=0.60 / qpmin=0 / qpmax=69 / qpstep=4 / cplxblur=20.0 / qblur=0.5 / ip_ratio=1.40 / aq=1:1.00
Default : Yes
Forced : No
Audio
ID : 2
Format : AC-3
Format/Info : Audio Coding 3
Format settings, Endianness : Big
Codec ID : A_AC3
Duration : 45 min 55 s
Bit rate mode : Constant
Bit rate : 384 kb/s
Channel(s) : 6 channels
Channel positions : Front: L C R, Side: L R, LFE
Sampling rate : 48.0 kHz
Frame rate : 31.250 FPS (1536 spf)
Bit depth : 16 bits
Compression mode : Lossy
Stream size : 126 MiB (18%)
Service kind : Complete Main
Default : Yes
Forced : No

Гончие-4

General
Unique ID : 236989028834306361489821880320864574554 (0xB24A6D3D04D4AC9D8AFB09750CA85C5A)
Complete name : \Гончие\Гончие-4\1. Личный контакт (1 сер.).mkv
Format : Matroska
Format version : Version 2
File size : 659 MiB
Duration : 46 min 12 s
Overall bit rate : 1 992 kb/s
Encoded date : UTC 2017-06-26 07:34:40
Writing application : mkvmerge v7.8.0 ('River Man') 32bit built on Apr 3 2015 12:11:22
Writing library : libebml v1.3.1 + libmatroska v1.4.2
Video
ID : 1
Format : AVC
Format/Info : Advanced Video Codec
Format profile : High@L3
Format settings, CABAC : Yes
Format settings, ReFrames : 4 frames
Codec ID : V_MPEG4/ISO/AVC
Duration : 46 min 12 s
Bit rate : 1 800 kb/s
Width : 716 pixels
Height : 432 pixels
Display aspect ratio : 16:9
Frame rate mode : Constant
Frame rate : 25.000 FPS
Color space : YUV
Chroma subsampling : 4:2:0
Bit depth : 8 bits
Scan type : Progressive
Bits/(Pixel*Frame) : 0.233
Stream size : 582 MiB (88%)
Writing library : x264 core 146 r2538 121396c
Encoding settings : cabac=1 / ref=1 / deblock=1:0:0 / analyse=0x3:0x3 / me=dia / subme=1 / psy=1 / psy_rd=1.00:0.00 / mixed_ref=0 / me_range=16 / chroma_me=1 / trellis=0 / 8x8dct=1 / cqm=0 / deadzone=21,11 / fast_pskip=1 / chroma_qp_offset=0 / threads=1 / lookahead_threads=1 / sliced_threads=0 / nr=0 / decimate=1 / interlaced=0 / bluray_compat=0 / stitchable=1 / constrained_intra=0 / bframes=3 / b_pyramid=2 / b_adapt=1 / b_bias=0 / direct=3 / weightb=1 / open_gop=0 / weightp=1 / keyint=250 / keyint_min=25 / scenecut=40 / intra_refresh=0 / rc=2pass / mbtree=0 / bitrate=1800 / ratetol=1.0 / qcomp=0.60 / qpmin=0 / qpmax=69 / qpstep=4 / cplxblur=20.0 / qblur=0.5 / ip_ratio=1.40 / pb_ratio=1.30 / aq=1:1.00
Default : No
Forced : No
Audio
ID : 2
Format : AC-3
Format/Info : Audio Coding 3
Format settings, Endianness : Big
Codec ID : A_AC3
Duration : 46 min 12 s
Bit rate mode : Constant
Bit rate : 192 kb/s
Channel(s) : 2 channels
Channel positions : Front: L R
Sampling rate : 48.0 kHz
Frame rate : 31.250 FPS (1536 spf)
Bit depth : 16 bits
Compression mode : Lossy
Stream size : 63.5 MiB (10%)
Service kind : Complete Main
Default : Yes
Forced : No

Гончие-5

General
Unique ID : 186732051649649700431722711157614611742 (0x8C7B48F4C518D754B8CA4033A0B08D1E)
Complete name : \Гончие\Гончие-5\5. Последний полёт Чкалова (1 сер.).mkv
Format : Matroska
Format version : Version 4 / Version 2
File size : 629 MiB
Duration : 45 min 32 s
Overall bit rate : 1 930 kb/s
Encoded date : UTC 2016-04-12 13:40:22
Writing application : mkvmerge v8.3.0 ('Over the Horizon') 32bit
Writing library : libebml v1.3.1 + libmatroska v1.4.2
Video
ID : 1
Format : AVC
Format/Info : Advanced Video Codec
Format profile : High@L3
Format settings, CABAC : Yes
Format settings, ReFrames : 4 frames
Codec ID : V_MPEG4/ISO/AVC
Duration : 45 min 32 s
Nominal bit rate : 1 800 kb/s
Width : 720 pixels
Height : 576 pixels
Display aspect ratio : 16:9
Frame rate mode : Constant
Frame rate : 25.000 FPS
Standard : PAL
Color space : YUV
Chroma subsampling : 4:2:0
Bit depth : 8 bits
Scan type : Progressive
Bits/(Pixel*Frame) : 0.174
Writing library : x264 core 146 r2538 121396c
Encoding settings : cabac=1 / ref=1 / deblock=1:0:0 / analyse=0x3:0x3 / me=dia / subme=1 / psy=1 / psy_rd=1.00:0.00 / mixed_ref=0 / me_range=16 / chroma_me=1 / trellis=0 / 8x8dct=1 / cqm=0 / deadzone=21,11 / fast_pskip=1 / chroma_qp_offset=0 / threads=1 / lookahead_threads=1 / sliced_threads=0 / nr=0 / decimate=1 / interlaced=0 / bluray_compat=0 / stitchable=1 / constrained_intra=0 / bframes=3 / b_pyramid=2 / b_adapt=1 / b_bias=0 / direct=3 / weightb=1 / open_gop=0 / weightp=1 / keyint=250 / keyint_min=25 / scenecut=40 / intra_refresh=0 / rc=2pass / mbtree=0 / bitrate=1800 / ratetol=1.0 / qcomp=0.60 / qpmin=0 / qpmax=69 / qpstep=4 / cplxblur=20.0 / qblur=0.5 / ip_ratio=1.40 / pb_ratio=1.30 / aq=1:1.00
Default : Yes
Forced : No
Audio
ID : 2
Format : AAC
Format/Info : Advanced Audio Codec
Format profile : LC
Codec ID : A_AAC
Duration : 45 min 32 s
Channel(s) : 2 channels
Channel positions : Front: L R
Sampling rate : 48.0 kHz
Frame rate : 46.875 FPS (1024 spf)
Compression mode : Lossy
Default : Yes
Forced : No

Скриншоты

Гончие-1

Гончие-2

Гончие-3

Гончие-4

Гончие-5

Вы не можете начинать темы
Вы не можете отвечать на сообщения
Вы не можете редактировать свои сообщения
Вы не можете удалять свои сообщения
Вы не можете голосовать в опросах
Вы не можете прикреплять файлы к сообщениям
Вы можете скачивать файлы
!ВНИМАНИЕ!

Сайт не предоставляет электронные версии произведений, а занимается лишь коллекционированием и каталогизацией ссылок, присылаемых и публикуемых на форуме нашими читателями. Если вы являетесь правообладателем какого-либо представленного материала и не желаете, чтобы ссылка на него находилась в нашем каталоге, свяжитесь с нами, и мы незамедлительно удалим ее. Файлы для обмена на трекере предоставлены пользователями сайта, и администрация не несет ответственности за их содержание. Просьба не заливать файлы, защищенные авторскими правами, а также файлы нелегального содержания!

Искали программы, игры, дополнения, музыка mp3, аниме, аудио книги, журналы? Добро пожаловать на свободный торрент трекер Torrents, у нас можно скачать бесплатно, без смс и регистрации и прочих ограничений лучшие, отборные сборки программ, игр. Скачать торрентом не составит труда даже не опытному пользователю. Раздачи ежедневно обновляются, только лучшие и качественные раздачи, подробные описания и скриншоты. Огромная коллекция программ для работы со звуком, графикой, дизайном, а так же множество плагинов и инструментов к ним с подробной инструкцией и рекомендациями. Прошивки для навигаторов, карты. Разнообразные игры, для Windows, Linux. В коллекцие есть и старые игры любых жанров, Rpg, Action, Shooter, strategy Множество дополнений, модификаций, сценариев для популярных игр в жанре экш, рпг, гонки, стратегии, логические игры. Множество аддонов и сценариев для Microsoft Flight Simulator Большая коллекция книг, учебников. Если нет возможности купить печатное издание - смело скачивайте цифровую версию книги или, быть может, журнала. Не любите читать - можно загрузить бесплатно аудикнигу. Для веб дизайнеров и программистов так же найдется множество специализированного софта, таких как: редакторы с подсветкой, среды программирования, компоненты, системы управления базами данных, разнообразные скрипты и шаблоны. Не так давно у нас появился материал для автолюбителей и владельцев мото - оригинальные и неоригинальные каталоги запчастей, книги и журналы по ремонту и обслуживанию, видеоуроки, статьи по чип тюнингу, прошивкам. Процедура получения контента элементарная, достаточно просто скачать торрент файл и добавить его в загрузку в вашем торрент клиенте. Если у вас нет специального торрент клиента, вы можете его скачать у нас.

Watch now! | OnlyChillstep - Chillstep Collection | Google Apps The Missing Manual