Суперстюард / Larry Gaye: Renegade Male Flight Attendant (2015) BDRip 1080p от ТВОЙ_ТРЕКЕР.РУ | D 

Цитировать

Информация о фильме
Название: Суперстюард
Оригинальное название: Larry Gaye: Renegade Male Flight Attendant
Год выхода: 2015
Жанр: Комедия
Режиссер: Айзек Флорентайн
В ролях: Джессика Лаундес, Ребекка Ромейн, Стэнли Туччи, Патрик Варбертон, Марша Гей Харден, Джейма Мейс, Тэй Диггз, Генри Уинклер, Молли Шеннон, Джейсон Александер
О фильме:
Ларри — стюарт-казанова, совмещает приятное с полезным, путешествуя по миру на крыльях любви.Прекрасные стюардессы, роскошные пассажирки бизнес-класса и симпатичные девушки с чартерных рейсов не могут устоять перед обаянием обольстительного бортпроводника. Жизнь воздушного Жиголо складывалась просто великолепно, до тех пор, пока авиакомпания не решила заменить весь персонал сногсшибательными стюардессами с искусственным интеллектом.Ларри принимает вызов прогресса и под пристальным взглядом высокого начальства разворачивается нешуточная война человека и сверхсовременного робота…

Страна: США
Студия: Night and Day Pictures
Продолжительность: 01:40:50
Перевод: Дублированный
Файл
Кодек: h.264
Качество: BDRip 1080p
Видео: MPEG-4 AVC, 14780 Кбит/с, 1920x1040, 23,976 кадр/с
Звук:
Русский (AC3, 6 ch, 448 Кбит/с) / Дублированный
Английский (DTS, 6 ch, 1509 Кбит/с)
Субтитры: Нет
Семпл

О релизе

Источник: Larry_Gaye_Renegade_Male_Flight_Attendant_BDRemux_HDCLUB
За источник спасибо marchelush
Сохранены оригинальные главы как на Blu-ray

MI

General
Unique ID : 170210973090468022083362438650986302458 (0x800D70E4F89C3FA192D41945F0150BFA)
Complete name : D:uTorrentSuperstjuard.2015.BDRip.1080p.MediaClub.mkv
Format : Matroska
Format version : Version 4 / Version 2
File size : 11.8 GiB
Duration : 1 h 40 min
Overall bit rate : 16.7 Mb/s
Encoded date : UTC 2017-10-06 13:18:22 / UTC 2017-10-01T19:10:28Z
Writing application : mkvmerge v16.0.0 ('Protest') 64-bit
Writing library : libebml v1.3.5 + libmatroska v1.4.8 / Lavf57.7.2
Video
ID : 1
Format : AVC
Format/Info : Advanced Video Codec
Format profile : High@L4.1
Format settings, CABAC : Yes
Format settings, ReFrames : 4 frames
Codec ID : V_MPEG4/ISO/AVC
Duration : 1 h 40 min
Bit rate : 14.8 Mb/s
Width : 1 920 pixels
Height : 1 040 pixels
Display aspect ratio : 1.85:1
Frame rate mode : Constant
Frame rate : 23.976 (24000/1001) FPS
Color space : YUV
Chroma subsampling : 4:2:0
Bit depth : 8 bits
Scan type : Progressive
Bits/(Pixel*Frame) : 0.309
Stream size : 10.2 GiB (86%)
Title : BDRip by Silverok
Writing library : x264 core 148 r2708 86b7198
Encoding settings : cabac=1 / ref=4 / deblock=1:-3:-3 / analyse=0x3:0x113 / me=umh / subme=11 / psy=1 / psy_rd=1.00:0.00 / mixed_ref=1 / me_range=24 / chroma_me=1 / trellis=2 / 8x8dct=1 / cqm=0 / deadzone=21,11 / fast_pskip=1 / chroma_qp_offset=-2 / threads=12 / lookahead_threads=1 / sliced_threads=0 / nr=0 / decimate=0 / interlaced=0 / bluray_compat=0 / constrained_intra=0 / bframes=8 / b_pyramid=2 / b_adapt=1 / b_bias=0 / direct=1 / weightb=1 / open_gop=0 / weightp=2 / keyint=240 / keyint_min=24 / scenecut=40 / intra_refresh=0 / rc_lookahead=40 / rc=2pass / mbtree=1 / bitrate=14780 / ratetol=1.0 / qcomp=0.60 / qpmin=0 / qpmax=69 / qpstep=4 / cplxblur=20.0 / qblur=0.5 / vbv_maxrate=62500 / vbv_bufsize=78125 / nal_hrd=none / filler=0 / ip_ratio=1.40 / aq=1:1.00
Default : Yes
Forced : No
Color range : Limited
Color primaries : BT.709
Transfer characteristics : BT.709
Matrix coefficients : BT.709
Statistics Tags Issue : mkvmerge v16.0.0 ('Protest') 64-bit 2017-10-06 13:18:22 / mkvmerge v16.0.0 ('Protest') 64-bit 2017-10-06 13:18:22 / UTC 2017-10-01T19:10:28Z
FromStats_BitRate : 14772794
FromStats_Duration : 01:40:50.837000000
FromStats_FrameCount : 145074
FromStats_StreamSize : 11173471530
Audio #1
ID : 2
Format : AC-3
Format/Info : Audio Coding 3
Format settings, Endianness : Big
Codec ID : A_AC3
Duration : 1 h 40 min
Bit rate mode : Constant
Bit rate : 448 kb/s
Channel(s) : 6 channels
Channel positions : Front: L C R, Side: L R, LFE
Sampling rate : 48.0 kHz
Frame rate : 31.250 FPS (1536 spf)
Bit depth : 16 bits
Compression mode : Lossy
Stream size : 323 MiB (3%)
Title : Дубляж
Language : Russian
Service kind : Complete Main
Default : Yes
Forced : No
Statistics Tags Issue : mkvmerge v16.0.0 ('Protest') 64-bit 2017-10-06 13:18:22 / mkvmerge v16.0.0 ('Protest') 64-bit 2017-10-06 13:18:22 / UTC 2017-10-01T19:10:28Z
FromStats_BitRate : 448000
FromStats_Duration : 01:40:48.896000000
FromStats_FrameCount : 189028
FromStats_StreamSize : 338738176
Audio #2
ID : 3
Format : DTS
Format/Info : Digital Theater Systems
Mode : 16
Format settings, Endianness : Big
Codec ID : A_DTS
Duration : 1 h 40 min
Bit rate mode : Constant
Bit rate : 1 509 kb/s
Channel(s) : 6 channels
Channel positions : Front: L C R, Side: L R, LFE
Sampling rate : 48.0 kHz
Frame rate : 93.750 FPS (512 spf)
Bit depth : 24 bits
Compression mode : Lossy
Stream size : 1.06 GiB (9%)
Language : English
Default : No
Forced : No
Statistics Tags Issue : mkvmerge v16.0.0 ('Protest') 64-bit 2017-10-06 13:18:22 / mkvmerge v16.0.0 ('Protest') 64-bit 2017-10-06 13:18:22 / UTC 2017-10-01T19:10:28Z
FromStats_BitRate : 1509000
FromStats_Duration : 01:40:48.832000000
FromStats_FrameCount : 567078
FromStats_StreamSize : 1140960936
Menu
00:00:00.000 : :Chapter 1
00:08:59.372 : :Chapter 2
00:17:49.860 : :Chapter 3
00:26:14.656 : :Chapter 4
00:34:21.685 : :Chapter 5
00:43:11.839 : :Chapter 6
00:51:32.006 : :Chapter 7
01:00:42.305 : :Chapter 8
01:09:42.762 : :Chapter 9
01:20:00.671 : :Chapter 10
01:28:33.642 : :Chapter 11
01:35:43.738 : :Chapter 12
01:40:48.834 : :Chapter 13

Скриншоты

Релиз от: | Silverok
Вы не можете начинать темы
Вы не можете отвечать на сообщения
Вы не можете редактировать свои сообщения
Вы не можете удалять свои сообщения
Вы не можете голосовать в опросах
Вы не можете прикреплять файлы к сообщениям
Вы можете скачивать файлы
!ВНИМАНИЕ!

Сайт не предоставляет электронные версии произведений, а занимается лишь коллекционированием и каталогизацией ссылок, присылаемых и публикуемых на форуме нашими читателями. Если вы являетесь правообладателем какого-либо представленного материала и не желаете, чтобы ссылка на него находилась в нашем каталоге, свяжитесь с нами, и мы незамедлительно удалим ее. Файлы для обмена на трекере предоставлены пользователями сайта, и администрация не несет ответственности за их содержание. Просьба не заливать файлы, защищенные авторскими правами, а также файлы нелегального содержания!

Искали программы, игры, дополнения, музыка mp3, аниме, аудио книги, журналы? Добро пожаловать на свободный торрент трекер Torrents, у нас можно скачать бесплатно, без смс и регистрации и прочих ограничений лучшие, отборные сборки программ, игр. Скачать торрентом не составит труда даже не опытному пользователю. Раздачи ежедневно обновляются, только лучшие и качественные раздачи, подробные описания и скриншоты. Огромная коллекция программ для работы со звуком, графикой, дизайном, а так же множество плагинов и инструментов к ним с подробной инструкцией и рекомендациями. Прошивки для навигаторов, карты. Разнообразные игры, для Windows, Linux. В коллекцие есть и старые игры любых жанров, Rpg, Action, Shooter, strategy Множество дополнений, модификаций, сценариев для популярных игр в жанре экш, рпг, гонки, стратегии, логические игры. Множество аддонов и сценариев для Microsoft Flight Simulator Большая коллекция книг, учебников. Если нет возможности купить печатное издание - смело скачивайте цифровую версию книги или, быть может, журнала. Не любите читать - можно загрузить бесплатно аудикнигу. Для веб дизайнеров и программистов так же найдется множество специализированного софта, таких как: редакторы с подсветкой, среды программирования, компоненты, системы управления базами данных, разнообразные скрипты и шаблоны. Не так давно у нас появился материал для автолюбителей и владельцев мото - оригинальные и неоригинальные каталоги запчастей, книги и журналы по ремонту и обслуживанию, видеоуроки, статьи по чип тюнингу, прошивкам. Процедура получения контента элементарная, достаточно просто скачать торрент файл и добавить его в загрузку в вашем торрент клиенте. Если у вас нет специального торрент клиента, вы можете его скачать у нас.

3x05 Viajeros | ซีรี่ย์ แค่บอกว่ารักกัน | Mr Robot